Скачать через торрент Шестой отряд Шесть Фильм бесплатно в хорошем качестве torrent

Скачивайте на UnionPeer.org фильмы через торрент без регистрации. Новинки кино в хорошем качестве через торрент. На UnionPeer.org можно скачать через торрент фильмы 2014 и 2015 годов. Самые новые фильмы.

Скачать торрент Шестой отряд Шесть бесплатно через .torrent фильм мультфильм сериал

Статистика раздачи
Размер:  4.36 GB   |    Зарегистрирован:  5 месяцев 2 дня   |    .torrent скачан:  42 раза   |   
Раздают:  1  
   
загрузка...
 
Автор Сообщение

Galfimbul

avatar Galfimbul



Шесть | Six

Год выпуска: 2018
Страна: США
Жанр: Боевик, драма, военный, история
Продолжительность: ~ 00:43:00
Перевод: Профессиональный (многоголосый закадровый) | Jaskier
Режиссёр: Лесли Линка Глаттер, Микаэл Саломон
В ролях: Бэрри Слоун, Кайл Шмид, Хуан Пабло Раба, Эдвин Ходж, Брианна Дэвис, Надин Веласкес, Доминик Адамс, Уолтон Гоггинс, Джейлен Мур и др.
Описание: "Six" расскажет о буднях элитного подразделения «морских котиков» под названием «Шестой отряд». Лучшие из лучших, эти члены воинского братства принимали участие в самых сложных миссиях, включая физическое устранение лидера «Аль-Каиды» Усамы бен Ладена. Вдохновленный реальными операциями «Шестого отряда» сериал исследует характер и судьбу своих героев, которым по несколько раз на дню приходится решать вопросы жизни и смерти..

| |
Качество: WEB-DL 720p
Формат: MKV
Видео: 1280x720 (16:9) | X264/MPEG4-AVC | ~4500 kbps | 23.976 fps
Аудио 1: AC3 | 48 KHz | 2.0 | ~192 kbps [RUS]
Аудио 2: AC3 | 48 KHz | 2.0 | ~192 kbps [ENG]
Субтитры: английские
Реклама: Присутствует звуковая (два раза в начале и конце по 12 сек.)
Перевод и озвучивание Студия Jaskier
Общее
Уникальный идентификатор                 : 175863386630519944564582720624875739401 (0x844E0E65F61B6CE8BF08F442B6531909)
Полное имя                               : H:\Ясы-сериалы\SIX. Season 2 (WEB-DL l 720p l Jaskier)\SIX.S02E01.720p.WEB-DL.DDP2.0.H.264-Jaskier.mkv
Формат                                   : Matroska
Версия формата                           : Version 2
Размер файла                             : 1,52 Гбайт
Продолжительность                        : 45 м. 21 с.
Общий поток                              : 4791 Кбит/сек
Дата кодирования                         : UTC 2018-06-02 15:18:02
Программа кодирования                    : mkvmerge v7.8.0 ('River Man') 32bit built on Apr  3 2015 12:11:22
Библиотека кодирования                   : libebml v1.3.1 + libmatroska v1.4.2

Видео
Идентификатор                            : 1
Формат                                   : AVC
Формат/Информация                        : Advanced Video Codec
Профиль формата                          : High@L3.1
Настройки формата                        : CABAC / 5 Ref Frames
Параметр CABAC формата                   : Да
Параметр RefFrames формата               : 5 кадров
Идентификатор кодека                     : V_MPEG4/ISO/AVC
Продолжительность                        : 45 м. 21 с.
Битрейт                                  : 4312 Кбит/сек
Ширина                                   : 1280 пикселей
Высота                                   : 720 пикселей
Соотношение сторон                       : 16:9
Режим частоты кадров                     : Постоянный
Частота кадров                           : 23,976 (24000/1001) кадра/сек
Цветовое пространство                    : YUV
Субдискретизация насыщенности            : 4:2:0
Битовая глубина                          : 8 бит
Тип развёртки                            : Прогрессивная
Бит/(Пиксели*Кадры)                      : 0.195
Размер потока                            : 1,37 Гбайт (90%)
Язык                                     : English
Default                                  : Да
Forced                                   : Нет
Цветовой диапазон                        : Limited
Основные цвета                           : BT.709
Характеристики трансфера                 : BT.709
Коэффициенты матрицы                     : BT.709

Аудио #1
Идентификатор                            : 2
Формат                                   : AC-3
Формат/Информация                        : Audio Coding 3
Идентификатор кодека                     : A_AC3
Продолжительность                        : 45 м. 21 с.
Вид битрейта                             : Постоянный
Битрейт                                  : 192 Кбит/сек
Каналы                                   : 2 канала
Расположение каналов                     : Front: L R
Частота                                  : 48,0 КГц
Частота кадров                           : 31,250 кадров/сек (1536 SPF)
Битовая глубина                          : 16 бит
Метод сжатия                             : С потерями
Размер потока                            : 62,3 Мбайт (4%)
Заголовок                                : Jaskier
Язык                                     : Russian
ServiceKind/String                       : Complete Main
Default                                  : Да
Forced                                   : Нет

Аудио #2
Идентификатор                            : 3
Формат                                   : AC-3
Формат/Информация                        : Audio Coding 3
Идентификатор кодека                     : A_AC3
Продолжительность                        : 45 м. 21 с.
Вид битрейта                             : Постоянный
Битрейт                                  : 192 Кбит/сек
Каналы                                   : 2 канала
Расположение каналов                     : Front: L R
Частота                                  : 48,0 КГц
Частота кадров                           : 31,250 кадров/сек (1536 SPF)
Битовая глубина                          : 16 бит
Метод сжатия                             : С потерями
Размер потока                            : 62,3 Мбайт (4%)
Язык                                     : English
ServiceKind/String                       : Complete Main
Default                                  : Нет
Forced                                   : Нет

Текст
Идентификатор                            : 4
Формат                                   : UTF-8
Идентификатор кодека                     : S_TEXT/UTF8
Идентификатор кодека/Информация          : UTF-8 Plain Text
Язык                                     : English
Default                                  : Нет
Forced                                   : Нет
Когда раздача ведётся путём добавления новых серий, при каждом добавлении создётся новый торрент. Чтобы начать докачку новой серии, пользователям необходимо сделать следующее:
(1) остановить скачивание,
(2) удалить старый торрент у себя из клиента (старые серии удалять не надо),
(3) скачать новый торрент и запустить его у себя в клиенте вместо старого, при этом указать клиенту путь в старую папку, куда и должно происходить скачивание новых серий.
Ваш клиент при этом должен произвести хеширование (проверку) старой папки (если не производит сам - помогите ему сделать это), и будет докачивать только те серии, которых у вас ещё нет. Старые серии при этом не удаляются, а продолжают раздаваться!
Eсли вы уже удалили старые серии, то предотвратить повторную закачку старых серий можно, отжав галочку в соответсвующих местах при запуске нового торрента. По возможности, желательно не удалять старые серии как можно дольше, чтобы релизёр не столько продолжал раздавать старые серии, а смог сконцентрироваться на новых.



Трекер:  [ 11-Июн-2018 11:21 ]

  

Скачать .torrent

Размер .torrent файла 22 KB


Размер: 4.36 GB
Хэш (hash) релиза: d36474615cf47d48dfa29b8687e6822cfca4eced
Подписка на обновления:

bot

Раздача обновлена!
Перекачайте торрент-файл.

Хотите добавить комментарий к записи скачать торрент Шестой отряд Шесть

!Обратная связь