Скачать через торрент По волчьим законам Animal Kingdom Фильм бесплатно в хорошем качестве torrent

Скачивайте на UnionPeer.org фильмы через торрент без регистрации. Новинки кино в хорошем качестве через торрент. На UnionPeer.org можно скачать через торрент фильмы 2014 и 2015 годов. Самые новые фильмы.

Скачать торрент По волчьим законам Animal Kingdom бесплатно через .torrent фильм мультфильм сериал

Статистика раздачи
Размер:  1.12 GB   |    Зарегистрирован:  5 месяцев 5 дней   |    .torrent скачан:  38 раз   |   
Раздают:  1  
   
загрузка...
 
Автор Сообщение

Galfimbul

avatar Galfimbul


По волчьим законам / Animal Kingdom
Год выпуска: 2018
Страна: США
Жанр: Драма, криминал
Продолжительность: ~ 00:60:00

Перевод: Профессиональный (двухголосый закадровый)[Gears Media]

Режиссёр: Джон Уэллс

В ролях: Эллен Баркин, Девон Сава, Скотт Спидман, Бен Робсон, Даниэлла Алонсо, Шон Хэтоси, Райан Дорси, Анна Белкнап, Джейк Вири, Карен Малина Уайт

Описание:
На создание сериала создателей вдохновил одноимённый австралийский фильм Дэвида Мишо 2010 года. Это история о том, как 17-летний Джошуа Коди после смерти матери переезжает к своей родне в пляжный городок в Южной Калифорнии. Глава семьи Джанин Коди руководит семейным делом. Главный её помощник — старший из братьев Коди по имени Поуп. Остальные сыновья тоже помогают матери по мере сил. Вскоре Джошуа понимает, что фамильный бизнес связан с криминалом и что теперь он волей-неволей сделался частью этого нового для него смертельно опасного мира.

Сэмпл: http://multi-up.com/1200377

Качество: WEBRip
Формат: AVI
Видео: XviD, 720x400 at 23.976 fps, ~1500 kbps avg
Аудио1: Russian, MP3, 48 kHz, 2 ch, 128 kbps
Аудио2: English, MP3, 48 kHz, 2 ch, 128 kbps
Субтитры: нет
Реклама: аудио (два раза, в начале и конце, по 12 сек.)
Format : AVI
Format/Info : Audio Video Interleave
File size : 593 MiB
Duration : 46 min 43 s
Overall bit rate : 1 775 kb/s
Writing application : Lavf56.30.100

Video
ID : 0
Format : xvid
Codec ID : xvid
Duration : 46 min 43 s
Bit rate : 1 499 kb/s
Width : 720 pixels
Height : 400 pixels
Display aspect ratio : 16:9
Frame rate : 23.976 (24000/1001) FPS
Scan type : Progressive
Bits/(Pixel*Frame) : 0.217
Stream size : 501 MiB (84%)

Audio #1
ID : 1
Format : MPEG Audio
Format version : Version 1
Format profile : Layer 3
Format settings : Joint stereo / MS Stereo
Codec ID : 55
Codec ID/Hint : MP3
Duration : 46 min 43 s
Bit rate mode : Constant
Bit rate : 128 kb/s
Channel(s) : 2 channels
Sampling rate : 48.0 kHz
Compression mode : Lossy
Stream size : 42.8 MiB (7%)
Alignment : Aligned on interleaves
Interleave, duration : 24 ms (0.58 video frame)
Interleave, preload duratio : 24 ms
Title : Gears Media

Audio #2
ID : 2
Format : MPEG Audio
Format version : Version 1
Format profile : Layer 3
Format settings : Joint stereo / MS Stereo
Codec ID : 55
Codec ID/Hint : MP3
Duration : 46 min 42 s
Bit rate mode : Constant
Bit rate : 128 kb/s
Channel(s) : 2 channels
Sampling rate : 48.0 kHz
Compression mode : Lossy
Stream size : 42.8 MiB (7%)
Alignment : Aligned on interleaves
Interleave, duration : 24 ms (0.58 video frame)
Interleave, preload duratio : 24 ms


Трекер:  [ 08-Июн-2018 11:22 ]

  

Скачать .torrent

Размер .torrent файла 12 KB


Размер: 1.12 GB
Хэш (hash) релиза: 048cb1d07fd405917639e443d19c6cce91316064
Подписка на обновления:

Торренты, похожие на По волчьим законам Animal Kingdom скачать торрент

Форум Название Автор Размер S L Добавлен
Зарубежные сериалы ·· По волчьим законам / Animal Kingdom / Сезон: 3 / Серии: 1-2 из 13 (Джон Уэллс) [2018, США, Драма, криминал, WEBRip 720p] DVO (Gears Media) + Original Galfimbul 26737644362.49 GB 0 0 1528008506

09:48

3-Июн-18

bot

Раздача обновлена!
Перекачайте торрент-файл.

Хотите добавить комментарий к записи скачать торрент По волчьим законам Animal Kingdom

!Обратная связь