Скачать через торрент Шесть Шестой отряд Фильм бесплатно в хорошем качестве torrent

Скачивайте на UnionPeer.org фильмы через торрент без регистрации. Новинки кино в хорошем качестве через торрент. На UnionPeer.org можно скачать через торрент фильмы 2014 и 2015 годов. Самые новые фильмы.

Скачать торрент Шесть Шестой отряд бесплатно через .torrent фильм мультфильм сериал

Статистика раздачи
Размер:  2.15 GB   |    Зарегистрирован:  4 месяца 26 дней   |    .torrent скачан:  83 раза   |   
Раздают:  1  
   
загрузка...
 
Автор Сообщение

Galfimbul

avatar Galfimbul


Шесть / Шестой отряд / Six
Год выпуска: 2018
Страна: США
Жанр: Боевик, драма, военный, история
Продолжительность: 0:45:21
Перевод: Профессиональный (многоголосый закадровый) LostFilm
Режиссёр: Лесли Линка Глаттер, Микаэл Саломон
В ролях: Бэрри Слоун, Кайл Шмид, Хуан Пабло Раба, Эдвин Ходж, Брианна Дэвис, Надин Веласкес, Доминик Адамс, Уолтон Гоггинс, Джейлен Мур
Описание: Шестому отряду не удалось нагнать и ликвидировать одного из лидеров Талибана в Афганистане. Более того, во время миссии бойцы столкнулись с американцем, работавшим на террористов. Эта случайная встреча породила разлад в отряде, и его командир Ричард Таггарт ушел в отставку. В наши дни команда под руководством Джо Грейвза узнает, что в одной из африканских деревень террористы взяли в заложники учениц нигерийской школы для девочек. Но настоящим шоком становится то, что в плену оказался и их бывший командир Таггарт, который после уходя из своего подразделения подался к частным заказчикам. Если террористы узнают, кем он был в прошлом, то Ричарда ждет незавидная участь. И Шестой отряд берется за очередное невероятное сложное задание, чтобы спасти гражданских, вытащить бывшего командира и разрешить старые конфликты. Однако не только бойцы хотят хочет добраться до Рипа: «морского котика» уже опознали старые враги из Афганистана…

Сэмпл: http://multi-up.com/1201682

Качество: WEB-DLRip
Формат: AVI
Видео: 720x400 (16:9), 23.976 fps, XviD build 73, 1425 Kbps, 0.20 bit/pixel
Аудио 1: MP3, 48 kHz, 2 ch, 128 kbps, CBR - Rus
Аудио 2: MP3, 48 kHz, 2 ch, 128 kbps, CBR - Eng
Субтитры: Отсутствуют
Реклама: Отсутствует
General
Complete name : Downloads\SIX (S02) LOST\SIX.S02E01.WEB-DLRip.Rus.Eng.LostFilm.avi
Format : AVI
Format/Info : Audio Video Interleave
File size : 550 MiB
Duration : 45mn 21s
Overall bit rate : 1 695 Kbps
Writing application : VirtualDubMod 1.5.10.3 | www.virtualdub-fr.org || (build 2550/release)
Writing library : VirtualDubMod build 2550/release
Video #0
ID : 0
Format : MPEG-4 Visual
Format profile : Advanced Simple@L5
Format settings, BVOP : 1
Format settings, QPel : No
Format settings, GMC : No warppoints
Format settings, Matrix : Custom
Codec ID : XVID
Codec ID/Hint : XviD
Duration : 45mn 21s
Bit rate : 1 425 Kbps
Width : 720 pixels
Height : 400 pixels
Display aspect ratio : 16:9
Frame rate : 23.976 fps
Color space : YUV
Chroma subsampling : 4:2:0
Bit depth : 8 bits
Scan type : Progressive
Compression mode : Lossy
Bits/(Pixel*Frame) : 0.206
Stream size : 462 MiB (84%)
Writing library : XviD 73
Audio #1
ID : 1
Format : MPEG Audio
Format version : Version 1
Format profile : Layer 3
Mode : Joint stereo
Mode extension : MS Stereo
Codec ID : 55
Codec ID/Hint : MP3
Duration : 45mn 21s
Bit rate mode : Constant
Bit rate : 128 Kbps
Channel(s) : 2 channels
Sampling rate : 48.0 KHz
Compression mode : Lossy
Stream size : 41.5 MiB (8%)
Alignment : Aligned on interleaves
Interleave, duration : 42 ms (1.00 video frame)
Interleave, preload duration : 504 ms
Audio #2
ID : 2
Format : MPEG Audio
Format version : Version 1
Format profile : Layer 3
Mode : Joint stereo
Mode extension : MS Stereo
Codec ID : 55
Codec ID/Hint : MP3
Duration : 45mn 21s
Bit rate mode : Constant
Bit rate : 128 Kbps
Channel(s) : 2 channels
Sampling rate : 48.0 KHz
Compression mode : Lossy
Stream size : 41.5 MiB (8%)
Alignment : Aligned on interleaves
Interleave, duration : 42 ms (1.00 video frame)
Interleave, preload duration : 504 ms
(1) остановить скачивание,
(2) удалить старый торрент у себя из клиента (старые серии удалять не надо),
(3) скачать новый торрент и запустить его у себя в клиенте вместо старого, при этом указать клиенту путь в старую папку куда и должно происходить скачивание новых серий.
Ваш клиент при этом должен произвести хеширование (проверку) старой папки (если не производит сам - помогите ему сделать это), и будет докачивать только те серии которых у вас ещё нет. Старые серии при этом не удаляются, а продолжают раздаваться!
Eсли вы уже удалили старые серии, то предотвратить повторную закачку старых серий можно, отжав галочку в соответсвующих местах при запуске нового торрента. По возможности, желательно не удалять старые серии как можно дольше чтобы релизёр не столько продолжал раздавать старые серии, а смог сконцентрироваться на новых.


Трекер:  [ 17-Июн-2018 00:48 ]

  

Скачать .torrent

Размер .torrent файла 11 KB


Размер: 2.15 GB
Хэш (hash) релиза: 29c51133cfe66ab72054c63522e2e437b08e14d6
Подписка на обновления:

Еще никто не оставлял запись к записи скачать торрент Шесть Шестой отряд . Будь первым!

!Обратная связь