Скачать через торрент Касл-Рок Castle Rock Фильм бесплатно в хорошем качестве torrent

Скачивайте на UnionPeer.org фильмы через торрент без регистрации. Новинки кино в хорошем качестве через торрент. На UnionPeer.org можно скачать через торрент фильмы 2014 и 2015 годов. Самые новые фильмы.

Скачать торрент Касл-Рок Castle Rock бесплатно через .torrent фильм мультфильм сериал

Статистика раздачи
Размер:  672 MB   |    Зарегистрирован:  3 месяца 14 дней   |    .torrent скачан:  55 раз   |   
Раздают:  1  
   
загрузка...
 
Автор Сообщение

Galfimbul

avatar Galfimbul


Касл-Рок / Castle Rock

Год выпуска: 2018
Страна: США
Жанр: Ужасы, фэнтези, триллер, драма
Продолжительность: 00:54:32

Перевод: Профессиональный (многоголосый закадровый) LostFilm

Режиссёр: Майкл Аппендаль, Дэниэл Эттиэс, Кевин Хукс

В ролях: Мелани Лински, Скотт Гленн, Андре Холланд, Джейн Леви, Терри О`Куинн, Билл Скарсгард, Сисси Спейсек, Калил Харрис, Чоузен Джейкобс, Эрик Шарп

Описание: Сериал основан на рассказах Стивена Кинга, действие которых происходит в вымышленном городке Касл-Рок.

Начальник тюрьмы Шоушенк совершает самоубийство, и после его смерти в закрытом крыле здания находят странного юношу. Никто не знает, кто это, а сам он называет только имя адвоката Генри Дивера, который вырос в Касл-Роке. Дивер возвращается в город, где когда-то трагически погиб его отец, и пытается выяснить историю загадочного заключенного.

Сэмпл: http://multi-up.com/1205005

Качество: WEB-DLRip
Формат: AVI
Видео: 720x360, 23.976 fps, XviD build 67, 1453 Kbps, 0.23 bit/pixel
Аудио 1: MP3, 48 kHz, 2 ch, 128 kbps, CBR - Rus
Аудио 2: MP3, 48 kHz, 2 ch, 128 kbps, CBR - Eng
Субтитры: Отсутствуют
Реклама: Отсутствует
Rip by DriverV / NNM-Club

"Чистый" кадр. Вступительная заставка и логотип LostFilm отсутствуют.
01. Severance / Прощание
General
Complete name : Downloads\Касл-Рок (сезон 1) Castle Rock (2018) WEB-DLRip - LostFilm\Castle.Rock.S01E01.WEB-DLRip.Rus.Eng.DV.LostFilm.avi
Format : AVI
Format/Info : Audio Video Interleave
File size : 672 MiB
Duration : 54mn 32s
Overall bit rate : 1 723 Kbps
Writing application : VirtualDubModRus 1.5.10.2 (build 2542/release)
Writing library : VirtualDubMod build 2542/release
Video #0
ID : 0
Format : MPEG-4 Visual
Format profile : Advanced Simple@L5
Format settings, BVOP : 2
Format settings, QPel : No
Format settings, GMC : No warppoints
Format settings, Matrix : Default (H.263)
Codec ID : XVID
Codec ID/Hint : XviD
Duration : 54mn 32s
Bit rate : 1 453 Kbps
Width : 720 pixels
Height : 360 pixels
Display aspect ratio : 2.000
Frame rate : 23.976 fps
Color space : YUV
Chroma subsampling : 4:2:0
Bit depth : 8 bits
Scan type : Progressive
Compression mode : Lossy
Bits/(Pixel*Frame) : 0.234
Stream size : 567 MiB (84%)
Writing library : XviD 67
Audio #1
ID : 1
Format : MPEG Audio
Format version : Version 1
Format profile : Layer 3
Mode : Joint stereo
Mode extension : MS Stereo
Codec ID : 55
Codec ID/Hint : MP3
Duration : 54mn 32s
Bit rate mode : Constant
Bit rate : 128 Kbps
Channel(s) : 2 channels
Sampling rate : 48.0 KHz
Compression mode : Lossy
Stream size : 49.9 MiB (7%)
Alignment : Aligned on interleaves
Interleave, duration : 42 ms (1.00 video frame)
Interleave, preload duration : 504 ms
Audio #2
ID : 2
Format : MPEG Audio
Format version : Version 1
Format profile : Layer 3
Mode : Joint stereo
Mode extension : MS Stereo
Codec ID : 55
Codec ID/Hint : MP3
Duration : 54mn 32s
Bit rate mode : Constant
Bit rate : 128 Kbps
Channel(s) : 2 channels
Sampling rate : 48.0 KHz
Compression mode : Lossy
Stream size : 49.9 MiB (7%)
Alignment : Aligned on interleaves
Interleave, duration : 42 ms (1.00 video frame)
Interleave, preload duration : 504 ms
(1) остановить скачивание,
(2) удалить старый торрент у себя из клиента (старые серии удалять не надо),
(3) скачать новый торрент и запустить его у себя в клиенте вместо старого, при этом указать клиенту путь в старую папку куда и должно происходить скачивание новых серий.
Ваш клиент при этом должен произвести хеширование (проверку) старой папки (если не производит сам - помогите ему сделать это), и будет докачивать только те серии которых у вас ещё нет. Старые серии при этом не удаляются, а продолжают раздаваться!
Eсли вы уже удалили старые серии, то предотвратить повторную закачку старых серий можно, отжав галочку в соответсвующих местах при запуске нового торрента. По возможности, желательно не удалять старые серии как можно дольше чтобы релизёр не столько продолжал раздавать старые серии, а смог сконцентрироваться на новых.
Предыдущие и альтернативные раздачи

Трекер:  [ 29-Июл-2018 21:18 ]

  

Скачать .torrent

Размер .torrent файла 14 KB


Размер: 672 MB
Хэш (hash) релиза: 8a087a33f75aaf10424e099d29a1401261f61c
Подписка на обновления:

Торренты, похожие на Касл-Рок Castle Rock скачать торрент

Форум Название Автор Размер S L Добавлен
Зарубежные сериалы ·%· Касл-Рок / Castle Rock / Сезон: 1 / Серии: 1 из 10 (Майкл Аппендаль, Дэниэл Эттиэс, Кевин Хукс) [2018, США, Ужасы, фэнтези, триллер, драма, детектив, WEB-DLRip] MVO (LostFilm) + Original Galfimbul 762736640727 MB 0 0 1532963891

18:18

30-Июл-18

Зарубежные сериалы ·%· Касл-Рок / Castle Rock / Сезон: 1 / Серии: 1 из 10 (Майкл Аппендаль, Дэниэл Эттиэс, Кевин Хукс) [2018, США, ужасы, триллер, драма, детектив, WEBRip] MVO (Profix Media) + Original Galfimbul 681926656650 MB 0 0 1532729890

01:18

28-Июл-18

Зарубежные сериалы ·%· Касл-Рок / Castle Rock / Сезон: 1 / Серии: 1 из 10 (Майкл Аппендаль, Дэниэл Эттиэс, Кевин Хукс) [2018, США, ужасы, фэнтези, триллер, драма, детектив, WEB-DL 720p] DVO (Gears Media) + Original Galfimbul 843080334804 MB 0 0 1532632720

22:18

26-Июл-18

Зарубежные сериалы ·%· Касл-Рок / Castle Rock / Сезон: 1 / Серии: 1 из 10 (Майкл Аппендаль, Дэниэл Эттиэс, Кевин Хукс) [2018, США, ужасы, фэнтези, триллер, драма, детектив, WEB-DRip] DVO (Gears Media) + Original Galfimbul 629391412600 MB 0 0 1532632691

22:18

26-Июл-18

Зарубежные сериалы ·%· Касл-Рок / Castle Rock / Сезон 1 / Серии 1 из 10 (Майкл Аппендаль) [2018, США, ужасы, фэнтези, триллер, драма, детектив, WEBRip 720p] MVO (Baibako) + Original + Sub (Eng) Galfimbul 11780187461.1 GB 0 0 1532618292

18:18

26-Июл-18

Зарубежные сериалы ·%· Касл-Рок / Castle Rock / Сезон: 1 / Серии: 1-2 из 10 (Майкл Аппендаль, Дэниэл Эттиэс, Кевин Хукс) [2018, США, ужасы, фэнтези, триллер, драма, детектив, WEB-DLRip-AVC] MVO (LostFilm) Galfimbul 15696315891.46 GB 0 0 1532994489

02:48

31-Июл-18

Зарубежные сериалы ·%· Касл-Рок / Castle Rock / Сезон 1 / Серии 1-3 из 10 (Майкл Аппендаль) [2018, США, ужасы, фэнтези, триллер, драма, детектив, WEB-DL 1080p] MVO (Jaskier) + Original Galfimbul 45118955884.2 GB 0 0 1532965705

18:48

30-Июл-18

Зарубежные сериалы ·%· Касл-Рок / Castle Rock / Сезон 1 / Серии 1-3 из 10 (Майкл Аппендаль) [2018, США, ужасы, фэнтези, триллер, драма, детектив, WEB-DL 720p] MVO (Jaskier) + Original Galfimbul 22087450162.06 GB 0 0 1532870307

16:18

29-Июл-18

Зарубежные сериалы ·%· Касл-Рок / Castle Rock / Сезон 1 / Серии 1-3 из 10 (Майкл Аппендаль) [2018, США, ужасы, фэнтези, триллер, драма, детектив, WEB-DLRip] MVO (Jaskier) + Original Galfimbul 18961162241.77 GB 0 0 1532870290

16:18

29-Июл-18

Зарубежные сериалы ·%· Касл-Рок / Castle Rock / Сезон: 1 / Серии: 1-3 из 10 (Майкл Аппендаль, Дэниэл Эттиэс, Кевин Хукс) [2018, США, ужасы, триллер, драма, детектив, WEBRip] MVO (Baibako) + Original Galfimbul 22917939202.13 GB 0 0 1532864888

14:48

29-Июл-18

Зарубежные сериалы ·%· Касл-Рок / Castle Rock / Сезон 1 / Серии 1-3 из 10 (Майкл Аппендаль) [2018, США, ужасы, фэнтези, триллер, драма, детектив, WEB-DL 720p] MVO (AlexFilm) + Original + Sub (Eng) Galfimbul 1020946758974 MB 0 0 1532807300

22:48

28-Июл-18

Еще никто не оставлял запись к записи скачать торрент Касл-Рок Castle Rock . Будь первым!

!Обратная связь