Скачать через торрент Касл-Рок Castle Rock Фильм бесплатно в хорошем качестве torrent

Скачивайте на UnionPeer.org фильмы через торрент без регистрации. Новинки кино в хорошем качестве через торрент. На UnionPeer.org можно скачать через торрент фильмы 2014 и 2015 годов. Самые новые фильмы.

Скачать торрент Касл-Рок Castle Rock бесплатно через .torrent фильм мультфильм сериал

Статистика раздачи
Размер:  727 MB   |    Зарегистрирован:  3 месяца 14 дней   |    .torrent скачан:  32 раза   |   
Раздают:  1  
   
загрузка...
 
Автор Сообщение

Galfimbul

avatar Galfimbul


Касл-Рок / Castle Rock
Год выпуска: 2018
Страна: США
Жанр: Ужасы, фэнтези, триллер, драма, детектив
Продолжительность: ~00:45:00
Перевод: Профессиональный (многоголосый закадровый) | LostFilm
Режиссёр: Майкл Аппендаль, Дэниэл Эттиэс, Кевин Хукс
В ролях: Мелани Лински, Энн Кьюсак, Скотт Гленн, Андре Холланд, Джейн Леви, Терри О’Куинн, Билл Скарсгард
Описание: Начальник тюрьмы Шоушенк совершает самоубийство, и после его смерти в закрытом крыле здания находят странного юношу. Никто не знает, кто это, а сам он называет только имя адвоката Генри Дивера, который вырос в Касл-Роке. Дивер возвращается в город, где когда-то трагически погиб его отец, и пытается выяснить историю загадочного заключенного.

<div class="post-box-default">
<div class="post-box" style="border-color: #d2d2d2; background: #000000;">Ссылка на предыдущие и альтернативные раздачи</div>
</div>
Качество: WEB-DLRip
Формат: AVI
Видео: XviD, 704x352, 23,976 fps, ~1595 kbps
Аудио #1: 48 kHz, MPEG Layer 3, 2 ch, ~128.00 kbps | Rus
Аудио #2: 48 kHz, MPEG Layer 3, 2 ch, ~128.00 kbps | Eng
Субтитры: нет
Реклама: Отсутствует
Format : AVI
Format/Info : Audio Video Interleave
File size : 727 MiB
Duration : 54 min 32 s
Overall bit rate : 1 865 kb/s
Writing application : VirtualDubMod 1.5.10.2 (build 2540/release)
Writing library : VirtualDubMod build 2540/release

Video
ID : 0
Format : MPEG-4 Visual
Format profile : Advanced Simple@L5
Format settings : BVOP1 / Custom Matrix
Format settings, BVOP : 1
Format settings, QPel : No
Format settings, GMC : No warppoints
Format settings, Matrix : Custom
Codec ID : XVID
Codec ID/Hint : XviD
Duration : 54 min 32 s
Bit rate : 1 595 kb/s
Width : 704 pixels
Height : 352 pixels
Display aspect ratio : 2.000
Frame rate : 23.976 (24000/1001) FPS
Color space : YUV
Chroma subsampling : 4:2:0
Bit depth : 8 bits
Scan type : Progressive
Compression mode : Lossy
Bits/(Pixel*Frame) : 0.268
Stream size : 622 MiB (86%)
Writing library : XviD 73

Audio #1
ID : 1
Format : MPEG Audio
Format version : Version 1
Format profile : Layer 3
Format settings : Joint stereo / MS Stereo
Codec ID : 55
Codec ID/Hint : MP3
Duration : 54 min 31 s
Bit rate mode : Constant
Bit rate : 128 kb/s
Channel(s) : 2 channels
Sampling rate : 48.0 kHz
Compression mode : Lossy
Stream size : 49.9 MiB (7%)
Alignment : Split accross interleaves
Interleave, duration : 42 ms (1.00 video frame)
Interleave, preload duratio : 500 ms

Audio #2
ID : 2
Format : MPEG Audio
Format version : Version 1
Format profile : Layer 3
Format settings : Joint stereo / MS Stereo
Codec ID : 55
Codec ID/Hint : MP3
Duration : 54 min 32 s
Bit rate mode : Constant
Bit rate : 128 kb/s
Channel(s) : 2 channels
Sampling rate : 48.0 kHz
Compression mode : Lossy
Stream size : 49.9 MiB (7%)
Alignment : Split accross interleaves
Interleave, duration : 42 ms (1.00 video frame)
Interleave, preload duratio : 500 ms
<div class="sp-wrap">
<div class="sp-head folded">Скриншоты</div>
<div class="sp-body">
</div>
</div>


Трекер:  [ 30-Июл-2018 18:18 ]

  

Скачать .torrent

Размер .torrent файла 14 KB


Размер: 727 MB
Хэш (hash) релиза: 3432952baf53006dc2aba3738e7703a3bfeddebb
Подписка на обновления:

Торренты, похожие на Касл-Рок Castle Rock скачать торрент

Форум Название Автор Размер S L Добавлен
Зарубежные сериалы ·%· Касл-Рок / Castle Rock / Сезон: 1 / Серии: 1 из 10 (Майкл Аппендаль, Дэниэл Эттиэс, Кевин Хукс) [2018, США, Ужасы, фэнтези, триллер, драма, WEB-DLRip] MVO (LostFilm) + Original Galfimbul 704704512672 MB 0 0 1532888301

21:18

29-Июл-18

Зарубежные сериалы ·%· Касл-Рок / Castle Rock / Сезон: 1 / Серии: 1 из 10 (Майкл Аппендаль, Дэниэл Эттиэс, Кевин Хукс) [2018, США, ужасы, триллер, драма, детектив, WEBRip] MVO (Profix Media) + Original Galfimbul 681926656650 MB 0 0 1532729890

01:18

28-Июл-18

Зарубежные сериалы ·%· Касл-Рок / Castle Rock / Сезон: 1 / Серии: 1 из 10 (Майкл Аппендаль, Дэниэл Эттиэс, Кевин Хукс) [2018, США, ужасы, фэнтези, триллер, драма, детектив, WEB-DL 720p] DVO (Gears Media) + Original Galfimbul 843080334804 MB 0 0 1532632720

22:18

26-Июл-18

Зарубежные сериалы ·%· Касл-Рок / Castle Rock / Сезон: 1 / Серии: 1 из 10 (Майкл Аппендаль, Дэниэл Эттиэс, Кевин Хукс) [2018, США, ужасы, фэнтези, триллер, драма, детектив, WEB-DRip] DVO (Gears Media) + Original Galfimbul 629391412600 MB 0 0 1532632691

22:18

26-Июл-18

Зарубежные сериалы ·%· Касл-Рок / Castle Rock / Сезон 1 / Серии 1 из 10 (Майкл Аппендаль) [2018, США, ужасы, фэнтези, триллер, драма, детектив, WEBRip 720p] MVO (Baibako) + Original + Sub (Eng) Galfimbul 11780187461.1 GB 0 0 1532618292

18:18

26-Июл-18

Зарубежные сериалы ·%· Касл-Рок / Castle Rock / Сезон: 1 / Серии: 1-2 из 10 (Майкл Аппендаль, Дэниэл Эттиэс, Кевин Хукс) [2018, США, ужасы, фэнтези, триллер, драма, детектив, WEB-DLRip-AVC] MVO (LostFilm) Galfimbul 15696315891.46 GB 0 0 1532994489

02:48

31-Июл-18

Зарубежные сериалы ·%· Касл-Рок / Castle Rock / Сезон 1 / Серии 1-3 из 10 (Майкл Аппендаль) [2018, США, ужасы, фэнтези, триллер, драма, детектив, WEB-DL 1080p] MVO (Jaskier) + Original Galfimbul 45118955884.2 GB 0 0 1532965705

18:48

30-Июл-18

Зарубежные сериалы ·%· Касл-Рок / Castle Rock / Сезон 1 / Серии 1-3 из 10 (Майкл Аппендаль) [2018, США, ужасы, фэнтези, триллер, драма, детектив, WEB-DL 720p] MVO (Jaskier) + Original Galfimbul 22087450162.06 GB 0 0 1532870307

16:18

29-Июл-18

Зарубежные сериалы ·%· Касл-Рок / Castle Rock / Сезон 1 / Серии 1-3 из 10 (Майкл Аппендаль) [2018, США, ужасы, фэнтези, триллер, драма, детектив, WEB-DLRip] MVO (Jaskier) + Original Galfimbul 18961162241.77 GB 0 0 1532870290

16:18

29-Июл-18

Зарубежные сериалы ·%· Касл-Рок / Castle Rock / Сезон: 1 / Серии: 1-3 из 10 (Майкл Аппендаль, Дэниэл Эттиэс, Кевин Хукс) [2018, США, ужасы, триллер, драма, детектив, WEBRip] MVO (Baibako) + Original Galfimbul 22917939202.13 GB 0 0 1532864888

14:48

29-Июл-18

Зарубежные сериалы ·%· Касл-Рок / Castle Rock / Сезон 1 / Серии 1-3 из 10 (Майкл Аппендаль) [2018, США, ужасы, фэнтези, триллер, драма, детектив, WEB-DL 720p] MVO (AlexFilm) + Original + Sub (Eng) Galfimbul 1020946758974 MB 0 0 1532807300

22:48

28-Июл-18

Еще никто не оставлял запись к записи скачать торрент Касл-Рок Castle Rock . Будь первым!

!Обратная связь