Скачать через торрент Конец ***го мира Просто конец света на*** Фильм бесплатно в хорошем качестве torrent

Скачивайте на UnionPeer.org фильмы через торрент без регистрации. Новинки кино в хорошем качестве через торрент. На UnionPeer.org можно скачать через торрент фильмы 2014 и 2015 годов. Самые новые фильмы.

Скачать торрент Конец ***го мира Просто конец света на*** бесплатно через .torrent фильм мультфильм сериал

Статистика раздачи
Размер:  7.79 GB   |    Зарегистрирован:  3 месяца 12 дней   |    .torrent скачан:  104 раза   |   
Раздают:  1  
   
загрузка...
 
Автор Сообщение

Galfimbul

avatar Galfimbul


Просто конец света на*** / The End Of The F***ing World

Оригинальное название: The End Of The F***ing World
Русское название: Просто конец света на***
Год выпуска: 2017
Страна: Великобритания
Жанр: Драма, комедия
Продолжительность: 25 мин.
Перевод: Профессиональный (многоголосый закадровый) Good People ПРИСУТСТВУЕТ НЕЦЕНЗУРНАЯ ЛЕКСИКА!
Субтитры: Да (английские)
Режиссёр: Джонатан Энтвистл, Люси Черняк
В ролях: Джессика Барден (Alyssa), Алекс Лоутер (James), Стив Орам (Phil), Вунми Моссаку (DC Teri Darego), Джемма Уилан (DC Eunice Noon), Кристин Боттомли (Gwen), Навин Чоудхри (Tony), Jack Veal (Little James), Джонатан Арис (Professor Clive Koch), Бэрри Уорд (Leslie), Келли Харрисон (Vanessa), Holly Beechey (Little Alyssa) и другие
Описание: Главный герой преодолел отметку в семнадцать лет и понял, что мир вокруг него безумен, да и сам он полнейший псих. Алиса - девушка, которая уже готовится к вступлению во взрослый возраст. Ей скоро восемнадцать. Она приходит в школу, где учится главный герой. Неожиданно между молодыми людьми вспыхивают чувства,которые перерастают в типичный подростковый роман. Он заходит еще дальше, ведь Алиса предлагает своему новому парню начать поиски ее отца. Джеймс же предлагает кое-что взамен. Бартер вполне может быть взаимным, но пока неясно, чем закончится эта история любви и постоянных поисков.
Сэмпл
Качество: WEBRip 720p
Формат: MKV
Видео кодек: AVC
Аудио кодек: AC3
Видео: AVC, 1280x720 (16:9), 25 fps, ~5404kbps, 0.235 bit/pixel
Аудио 1: Dolby AC3 48000Hz 6ch 384 Kbps Русский
Аудио 2: Dolby AC3 48000Hz 6ch 384 Kbps Оригинал
Реклама: Присутствует звуковая (два раза в начале и конце по 12 сек.)
General
Unique ID                   : 236198217226538584471635121609356921754 (0xB1B21F373F2547A2B46190DF5AE0CB9A)
Complete name               : The.End.of.the.Fucking.World.S01E01.720p.NF.WEBRip.DD5.1.x264-GoodPeople.mkv
Format                      : Matroska
Format version              : Version 4 / Version 2
File size                   : 836 MiB
Duration                    : 18mn 54s
Overall bit rate            : 6 180 Kbps
Encoded date                : UTC 2018-07-31 18:42:33
Writing application         : mkvmerge v17.0.0 ('Be Ur Friend') 64-bit
Writing library             : libebml v1.3.5 + libmatroska v1.4.8
DURATION                    : 00:18:54.752000000
NUMBER_OF_FRAMES            : 35461
NUMBER_OF_BYTES             : 54468096
_STATISTICS_WRITING_APP     : mkvmerge v17.0.0 ('Be Ur Friend') 64-bit
_STATISTICS_WRITING_DATE_UT : 2018-07-31 18:42:33
_STATISTICS_TAGS            : BPS DURATION NUMBER_OF_FRAMES NUMBER_OF_BYTES

Video
ID                          : 1
Format                      : AVC
Format/Info                 : Advanced Video Codec
Format profile              : High@L4.1
Format settings, CABAC      : Yes
Format settings, ReFrames   : 9 frames
Codec ID                    : V_MPEG4/ISO/AVC
Duration                    : 18mn 54s
Bit rate                    : 5 289 Kbps
Width                       : 1 280 pixels
Height                      : 720 pixels
Display aspect ratio        : 16:9
Frame rate mode             : Constant
Frame rate                  : 25.000 fps
Color space                 : YUV
Chroma subsampling          : 4:2:0
Bit depth                   : 8 bits
Scan type                   : Progressive
Bits/(Pixel*Frame)          : 0.230
Stream size                 : 716 MiB (86%)
Writing library             : x264 core 152 r2851kMod ba24899
Encoding settings           : cabac=1 / ref=9 / deblock=1:-3:-3 / analyse=0x3:0x133 / me=umh / subme=10 / psy=1 / fade_compensate=0.00 / psy_rd=1.00:0.00 / mixed_ref=1 / me_range=48 / chroma_me=1 / trellis=2 / 8x8dct=1 / cqm=0 / deadzone=21,11 / fast_pskip=0 / chroma_qp_offset=-2 / threads=12 / lookahead_threads=2 / sliced_threads=0 / nr=0 / decimate=0 / interlaced=0 / bluray_compat=0 / constrained_intra=0 / bframes=8 / b_pyramid=2 / b_adapt=2 / b_bias=0 / direct=3 / weightb=1 / open_gop=0 / weightp=2 / keyint=250 / keyint_min=25 / scenecut=40 / intra_refresh=0 / rc=crf / mbtree=0 / crf=17.0000 / qcomp=0.60 / qpmin=0 / qpmax=69 / qpstep=4 / ip_ratio=1.30 / pb_ratio=1.20 / aq=3:0.80
Language                    : English
Default                     : Yes
Forced                      : No
DURATION                    : 00:18:54.360000000
NUMBER_OF_FRAMES            : 28359
NUMBER_OF_BYTES             : 767386915
_STATISTICS_WRITING_APP     : mkvmerge v17.0.0 ('Be Ur Friend') 64-bit
_STATISTICS_WRITING_DATE_UT : 2018-07-31 18:42:33
_STATISTICS_TAGS            : BPS DURATION NUMBER_OF_FRAMES NUMBER_OF_BYTES

Audio #1
ID                          : 2
Format                      : AC-3
Format/Info                 : Audio Coding 3
Mode extension              : CM (complete main)
Format settings, Endianness : Big
Codec ID                    : A_AC3
Duration                    : 18mn 54s
Bit rate mode               : Constant
Bit rate                    : 384 Kbps
Channel(s)                  : 6 channels
Channel positions           : Front: L C R, Side: L R, LFE
Sampling rate               : 48.0 KHz
Compression mode            : Lossy
Stream size                 : 51.9 MiB (6%)
Title                       : Good People
Language                    : Russian
Default                     : Yes
Forced                      : No

Audio #2
ID                          : 3
Format                      : AC-3
Format/Info                 : Audio Coding 3
Mode extension              : CM (complete main)
Format settings, Endianness : Big
Codec ID                    : A_AC3
Duration                    : 18mn 54s
Bit rate mode               : Constant
Bit rate                    : 384 Kbps
Channel(s)                  : 6 channels
Channel positions           : Front: L C R, Side: L R, LFE
Sampling rate               : 48.0 KHz
Compression mode            : Lossy
Stream size                 : 51.9 MiB (6%)
Language                    : English
Default                     : No
Forced                      : No

Text
ID                          : 4
Format                      : UTF-8
Codec ID                    : S_TEXT/UTF8
Codec ID/Info               : UTF-8 Plain Text
Language                    : English
Default                     : No
Forced                      : No


Трекер:  [ 31-Июл-2018 23:18 ]

  

Скачать .torrent

Размер .torrent файла 21 KB


Размер: 7.79 GB
Хэш (hash) релиза: 4e269e104d2de6c979c97c6e9c2cd1780c6a16f9
Подписка на обновления:

Еще никто не оставлял запись к записи скачать торрент Конец ***го мира Просто конец света на*** . Будь первым!

!Обратная связь