Скачать через торрент Атланта Atlanta Фильм бесплатно в хорошем качестве torrent

Скачивайте на UnionPeer.org фильмы через торрент без регистрации. Новинки кино в хорошем качестве через торрент. На UnionPeer.org можно скачать через торрент фильмы 2014 и 2015 годов. Самые новые фильмы.

Скачать торрент Атланта Atlanta бесплатно через .torrent фильм мультфильм сериал

Статистика раздачи
Размер:  7.38 GB   |    Зарегистрирован:  3 месяца 12 дней   |    .torrent скачан:  62 раза   |   
Раздают:  1  
   
загрузка...
 
Автор Сообщение

Galfimbul

avatar Galfimbul


Атланта / Atlanta
Год выпуска: 2016-2018
Страна: США
Жанр: Комедия
Продолжительность: ~00:30:00
Перевод: Профессиональный (многоголосый закадровый) | NewStudio
Режиссёр: Хиро Мурай, Дональд Гловер, Эми Саймец
В ролях: Дональд Гловер, Брайан Тайри Генри, Лейкит Стэнфилд, Зази Битц
Описание: Сериал следует за Эрном в ходе его повседневной жизни в Атланте, штат Джорджия, как он пытается искупить свою вину в глазах своей подруги (мать его дочери), своих родителей и двоюродного брата, который читает рэп под псевдонимом «Бумажный Бой». Эрн отчислен из Принстонского университета, у него нет денег и нет дома, и поэтому он остаётся жить то с родителями, то со своей девушкой. Однажды Эрн понимает, что его двоюродный брат находится на грани славы, и он отчаянно пытается восстановить с ним связь для того, чтобы улучшить свою жизнь и жизнь своей дочери.

<div class="post-box-default">
<div class="post-box" style="border-color: #d2d2d2; background: #000000;">Ссылка на предыдущие и альтернативные раздачи</div>
</div>
Качество: WEBRip
Формат: AVI
Видео: XviD, 720x400, 23.976 fps, ~1 549 kbps
Аудио #1: 48 kHz, MPEG Layer 3, 2 ch, ~128.00 kbps | Rus
Аудио #2: 48 kHz, MPEG Layer 3, 2 ch, ~128.00 kbps | Eng
Субтитры: нет
Реклама: Отсутствует
Format : AVI
Format/Info : Audio Video Interleave
File size : 325 MiB
Duration : 24 min 56 s
Overall bit rate : 1 820 kb/s
Writing application : VirtualDubMod 1.5.10.2 (build 2540/release)
Writing library : VirtualDubMod build 2540/release

Video
ID : 0
Format : MPEG-4 Visual
Format profile : Advanced Simple@L5
Format settings : BVOP1 / Custom Matrix
Format settings, BVOP : 1
Format settings, QPel : No
Format settings, GMC : No warppoints
Format settings, Matrix : Custom
Codec ID : XVID
Codec ID/Hint : XviD
Duration : 24 min 56 s
Bit rate : 1 549 kb/s
Width : 720 pixels
Height : 400 pixels
Display aspect ratio : 16:9
Frame rate : 23.976 (24000/1001) FPS
Color space : YUV
Chroma subsampling : 4:2:0
Bit depth : 8 bits
Scan type : Progressive
Compression mode : Lossy
Bits/(Pixel*Frame) : 0.224
Stream size : 276 MiB (85%)
Writing library : XviD 73

Audio #1
ID : 1
Format : MPEG Audio
Format version : Version 1
Format profile : Layer 3
Format settings : Joint stereo / MS Stereo
Codec ID : 55
Codec ID/Hint : MP3
Duration : 24 min 56 s
Bit rate mode : Constant
Bit rate : 128 kb/s
Channel(s) : 2 channels
Sampling rate : 48.0 kHz
Compression mode : Lossy
Stream size : 22.8 MiB (7%)
Alignment : Split accross interleaves
Interleave, duration : 42 ms (1.00 video frame)
Interleave, preload duratio : 500 ms

Audio #2
ID : 2
Format : MPEG Audio
Format version : Version 1
Format profile : Layer 3
Format settings : Joint stereo / MS Stereo
Codec ID : 55
Codec ID/Hint : MP3
Duration : 24 min 56 s
Bit rate mode : Constant
Bit rate : 128 kb/s
Channel(s) : 2 channels
Sampling rate : 48.0 kHz
Compression mode : Lossy
Stream size : 22.8 MiB (7%)
Alignment : Split accross interleaves
Interleave, duration : 42 ms (1.00 video frame)
Interleave, preload duratio : 500 ms
<div class="sp-wrap">
<div class="sp-head folded">Скриншоты</div>
<div class="sp-body">
</div>
</div>


Трекер:  [ 01-Авг-2018 15:48 ]

  

Скачать .torrent

Размер .torrent файла 38 KB


Размер: 7.38 GB
Хэш (hash) релиза: 0701f4215094aedf96625e3d81dcff83f5bc7359
Подписка на обновления:

Еще никто не оставлял запись к записи скачать торрент Атланта Atlanta . Будь первым!

!Обратная связь