Скачать через торрент Короткометражные триллеры Евгения Пузыревского Фильм бесплатно в хорошем качестве torrent

Скачивайте на UnionPeer.org фильмы через торрент без регистрации. Новинки кино в хорошем качестве через торрент. На UnionPeer.org можно скачать через торрент фильмы 2014 и 2015 годов. Самые новые фильмы.

Скачать торрент Короткометражные триллеры Евгения Пузыревского бесплатно через .torrent фильм мультфильм сериал

Статистика раздачи
Размер:  698 MB   |    Зарегистрирован:  16 дней   |    .torrent скачан:  138 раз   |   
Раздают:  1  
   
загрузка...
 
Автор Сообщение

Galfimbul

avatar Galfimbul


Короткометражные триллеры Евгения Пузыревского



[b]Год выхода:
2016-2018
Жанр: Триллер, драма, ужасы, короткометражка
Режиссер: Евгений Пузыревский
В ролях: Денис Шведов, Ксения Радченко, Кирилл Полухин, Сергей Походаев, Александра Харитонова, Ангелина Стречина, Иван Мулин, Алексей Колубков

О фильме: "Под водой" (2018): «Девушка, находясь одна в квартире, с наслаждением принимает ванну. Тишина, спокойствие, безопасность… ровно до того момента, как она понимает, что рядом кто-то есть. И эта «кто-то» не собирается уходить»

"Он был его другом" (2016): «После неудачной попытки совершить свое первое убийство, начинающий маньяк решает, что самый практичный способ «открыть счёт», это убить друга, который тебе полностью доверяет. Так одинокий и психически неуравновешенный молодой человек знакомится с наивным соседским парнишкой»

"Мама всегда рядом" (2016): «Поздней ночью в загородный дом врывается отчаянная женщина с ружьём и с порога стреляет в хозяина. Но нападавшая не знает, что мужчина в доме не один»

Доп. информация Ограничение: 18+

Композиторы:
"Мама всегда рядом" (2016): Антон Завьялов (группы "25/17", "Лёд 9")
"Он был его другом" (2016): Михаил Мищенко



Страна: Россия
Продолжительность: 01:06:19
Перевод: Не требуется
Субтитры: Нет

Файл
Кодек: XviD
Качество: WEBRip
Видео: 720x304 (2.37:1), 25 fps, XviD build 73 ~1206 kbps avg, 0.22 bit/pixel
Звук: 48 kHz, MPEG Layer 3, 2 ch, ~256.00 kbps avg
General
Complete name : Trillery.E.P.2016.2018.WEBRip.Portablius.avi
Format : AVI
Format/Info : Audio Video Interleave
File size : 698 MiB
Duration : 1 h 6 min
Overall bit rate : 1 472 kb/s
Writing application : VirtualDubMod 1.5.10.3 | www.virtualdub-fr.org || (build 2550/release)
Writing library : VirtualDubMod build 2550/release

Video
ID : 0
Format : MPEG-4 Visual
Format profile : Advanced Simple@L5
Format settings, BVOP : 1
Format settings, QPel : No
Format settings, GMC : No warppoints
Format settings, Matrix : Custom
Codec ID : XVID
Codec ID/Hint : XviD
Duration : 1 h 6 min
Bit rate : 1 207 kb/s
Width : 720 pixels
Height : 304 pixels
Display aspect ratio : 2.35:1
Frame rate : 25.000 FPS
Color space : YUV
Chroma subsampling : 4:2:0
Bit depth : 8 bits
Scan type : Progressive
Compression mode : Lossy
Bits/(Pixel*Frame) : 0.220
Stream size : 572 MiB (82%)
Writing library : XviD 73

Audio
ID : 1
Format : MPEG Audio
Format version : Version 1
Format profile : Layer 3
Codec ID : 55
Codec ID/Hint : MP3
Duration : 1 h 6 min
Bit rate mode : Constant
Bit rate : 256 kb/s
Channel(s) : 2 channels
Sampling rate : 48.0 kHz
Compression mode : Lossy
Stream size : 121 MiB (17%)
Alignment : Aligned on interleaves
Interleave, duration : 40 ms (1.00 video frame)
Interleave, preload duratio : 504 ms
Writing library : LAME3.99r
Encoding settings : -m s -V 4 -q 2 -lowpass 19.7
Источник http://BlaTor.org

Трекер:  [ 05-Ноя-2018 14:40 ]

  

Скачать .torrent

Размер .torrent файла 14 KB


Размер: 698 MB
Хэш (hash) релиза: e1ee51ed594835453c1e82ed8fa9f1564a2fd0e7
Подписка на обновления:

Торренты, похожие на Короткометражные триллеры Евгения Пузыревского скачать торрент

Форум Название Автор Размер S L Добавлен
Российские фильмы до 2016 ·%· Короткометражные триллеры Евгения Пузыревского (Евгений Пузыревский) [2016-2018, Триллер, драма, ужасы, HDRip 720p, AVC] Galfimbul 26057359642.43 GB 0 0 1530050055

00:54

27-Июн-18

Российские фильмы до 2016 ·%· Короткометражные триллеры Евгения Пузыревского (Евгений Пузыревский) [2018, Триллер, драма, ужасы, HDRip, AVC] Galfimbul 61371317695.72 GB 0 0 1530026652

18:24

26-Июн-18

Российские фильмы 2016-2018 (Новинки русского кино) ·%· Короткометражные триллеры Евгения Пузыревского (2016-2018) WEBRip 720p Galfimbul 26057359642.43 GB 0 0 1541227841

09:50

3-Ноя-18

Российские фильмы 2016-2018 (Новинки русского кино) ·%· Короткометражные триллеры Евгения Пузыревского (2016-2018) WEBRip 1080p Galfimbul 61371317695.72 GB 0 0 1541057513

10:31

1-Ноя-18

Российские фильмы до 2016 ·· Мама всегда рядом (Евгений Пузыревский) [2016, Триллер, драма, короткометражный, WEB-DLRip] Galfimbul 991265685945 MB 0 0 1490541321

18:15

26-Мар-17

Российские фильмы до 2016 ·· Мама всегда рядом (Евгений Пузыревский) [2016, Триллер, драма, короткометражный, HDRip] Galfimbul 27243260312.54 GB 0 0 1489845804

17:03

18-Мар-17

Российские фильмы до 2016 ·· Он был его другом (Евгений Пузыревский) [2016, Драма, триллер, короткометражный, WEB-DLRip] Galfimbul 424987924405 MB 0 0 1470247968

21:12

3-Авг-16

Российские фильмы до 2016 ·· Он был его другом (Евгений Пузыревский) [2015, драма, мелодрама, триллер, короткометражный, WEBRip] Galfimbul 424987924405 MB 0 0 1468051967

11:12

9-Июл-16

Российские фильмы до 2016 ·· Он был его другом (Евгений Пузыревский) [2016, Драма, триллер, короткометражный, HDRip, AVC] Galfimbul 26823101832.5 GB 0 0 1466444113

20:35

20-Июн-16

Еще никто не оставлял запись к записи скачать торрент Короткометражные триллеры Евгения Пузыревского . Будь первым!

!Обратная связь